Trabajo con vídeo digital

La importancia del vídeo online se muestra en que, actualmente, supone el 50% de la cantidad de datos descargados durante la navegación de Internet en todo el mundo. Según algunos estudios en 2022 supondrá el 75% de todo el tráfico en línea (https://www.ericsson.com/assets/local/mobility-report/documents/2017/ericsson-mobility-report-june-2017.pdf). Por ello, es necesario controlar los formatos y códecs necesarios para publicar los vídeos en Internet. A partir del vídeo MPEG adjunto, responde y realiza los siguientes ejercicios:

7. ¿Cuál es la diferencia entre formato y códec? Define y explica brevemente cada concepto.

  • El formato es el contenedor de los archivos, mientras que el códec es la manera en la que se codifican para ser guardados en dicho contenedor. De otra manera, el formato es la caja de zapatos y el códec es la manera en la que los colocamos para que encajen en la caja.

8. MPEG:

  • ¿Cuáles son las principales características de un vídeo MPEG?
    • Es uno de los formatos estándares para la compresión de video digital. Admite diferentes códecs, desde el MPEG-1 hasta el 7, más orientado a la web.  Posee compresión intra-frame y fue el estándar en el que se introdujo la inter-frame.
  • ¿Cuáles son los casos de uso más habituales de un vídeo MPEG?
    • Dado que hay 5 códecs diferentes, realmente pueden usarse para cualquier cosa, desde web hasta cds y dvds.
  • ¿Qué tipos de códecs MPEG existen y cuáles son sus usos principales?
  • Nombre Características
    MPEG-1 Proporciona codificación de un canal (mono) o dos canales (estéreo o mono dual) con tasas de muestreo de 32, 44.1 y 48 ksps. Las tasas de bits (bitrates) predefinidas son:

      • Layer I: De 32 a 448 kbps
      • Layer II: De 32 a 384 kbps
      • Layer III: De 32 a 320 kbps
    MPEG-2 BC Proporciona:

    • Una extensión multicanal compatible con MPEG-1 (Backwards Compatible: BC). Permite hasta 5 canales principales y además un canal de mejora de bajas frecuencias. Las tasas binarias se extienden hasta valores próximos a 1 Mbps.
    • Una extensión para tasas de muestreo menores. Ofrece tasas a 16, 22.05 y 24 ksps para bitrates de 32 a 256 kbps para el Layer I y de 8 a 160 kbps para los Layers II y III.
    MPEG-2 AAC Es un estándar de codificación audio de muy alta calidad de hasta 48 canales con tasas de muestreo desde 8 a 96 ksps con capacidades multicanal, multilenguaje y multiprograma. Trabaja a bitrates desde 8 kbps para señal monofónica de voz hasta más de 160 kbps/canal para codificación de muy alta calidad.
    MPEG-4 Proporciona:

    • Codificación y composición de objetos audio tanto naturales como sintetizados.
    • Escalabilidad en el bitrate.
    • Escalabilidad en la complejidad de los codificadores y decodificadores.
    • Audio Estructurado: Lenguaje universal para la síntesis de sonido.
    • TTSI: Un interfaz para la conversión de texto a voz.
    MPEG-7 Proporciona:

    • Descripciones estandarizadas y esquemas de descripción de estructuras de audio y contenido audio.
    • Un lenguaje para esas descripciones y esquemas de descripciones.

9. Convierte el vídeo MPEG en MP4 con el códec H.264 y responde a las siguientes cuestiones:

  • ¿Cuáles son las principales características de este tipo de vídeos?
    • MP4 o MPEG-4 Part 14 es un estándar basado en el MOV de Quicktime. Podemos con él codificar el vídeo en virtualmente cualquier resolución (incluso 4K) con una alta calidad y archivos relativamente pequeños, reduce en un 40-50% la tasa de bits comparado con MPEG-2.
  • ¿Cuáles son los casos de uso más habituales de este tipo de vídeos?
    • Vídeos que van a subirse a la red.

10. Convierte el vídeo MPEG en MP4 con el códec H.265 y responde a las siguientes cuestiones:

  • ¿Cuáles son las principales características de este tipo de vídeos?
    • Su principal característica es que reduce a la mitad el ancho de banda necesario para reproducir un vídeo: literalmente, reduce el bitrate al 50% comparado con el H.264
  • ¿Cuáles son los casos de uso más habituales de este tipo de vídeos?
    • Es el formato óptimo para el streaming (vídeos emitidos en directo)
  • ¿Cuáles son diferencias técnicas entre el códec H.264 y H.265?
    • H.264 soporta 4K, mientras que H.265 soporta además, 8K y 300fps.
  • Analiza y compara los resultados de ambos vídeos.
    • Vemos que la mayor diferencia radica en el ancho de banda:
      H.264 H.265
      Format : MPEG-4Format profile : Base Media / Version 2
      Codec ID : mp42
      File size : 29.4 MiB
      Duration : 25s 131ms
      Overall bit rate mode : Variable
      Overall bit rate : 9 801 KbpsFormat/Info : Advanced Video Codec
      Format profile : High@L4
      Codec ID : avc1
      Codec ID/Info : Advanced Video Coding
      Duration : 25s 67ms
      Bit rate : 9 817 Kbps
      Width : 1 920 pixels
      Height : 1 080 pixels
      Display aspect ratio : 16:9
      Frame rate mode : Variable
      Frame rate : 23.976 fps
      Minimum frame rate : 23.974 fps
      Maximum frame rate : 23.981 fps
      Color space : YUV
      Chroma subsampling : 4:2:0
      Bit depth : 8 bits
      Bits/(Pixel*Frame) : 0.197
      Stream size : 29.3 MiB (100%)

      Format : AAC
      Format/Info : Advanced Audio Codec
      Format profile : LC
      Codec ID : 40
      Duration : 25s 131ms
      Bit rate mode : Variable
      Bit rate : 2 272 bps
      Channel(s) : 2 channels
      Channel positions : Front: L R
      Sampling rate : 48.0 KHz
      Compression mode : Lossy
      Stream size : 6.97 KiB (0%)
      Title : Stereo / Stereo

      Format : MPEG-4Format profile : Base Media / Version 2
      Codec ID : mp42
      File size : 18.6 MiB
      Duration : 25s 131ms
      Overall bit rate mode : Variable
      Overall bit rate : 6 198 KbpsFormat/Info : High Efficiency Video Coding
      Format profile : Main@L4@Main
      Codec ID : hev1
      Codec ID/Info : High Efficiency Video
      Duration : 25s 67ms
      Bit rate : 6 205 Kbps
      Width : 1 920 pixels
      Height : 1 080 pixels
      Display aspect ratio : 16:9
      Frame rate mode : Variable
      Frame rate : 23.976 fps
      Minimum frame rate : 23.974 fps
      Maximum frame rate : 23.981 fps
      Color space : YUV
      Chroma subsampling : 4:2:0
      Bit depth : 8 bits
      Bits/(Pixel*Frame) : 0.125
      Stream size : 18.5 MiB (100%)

      Format : AAC
      Format/Info : Advanced Audio Codec
      Format profile : LC
      Codec ID : 40
      Duration : 25s 131ms
      Bit rate mode : Variable
      Bit rate : 2 272 bps
      Channel(s) : 2 channels
      Channel positions : Front: L R
      Sampling rate : 48.0 KHz
      Compression mode : Lossy
      Stream size : 6.97 KiB (0%)
      Title : Stereo / Stereo

11. Convierte el vídeo MPEG en WebM (Matroska MKV) con el códec VP8 y responde a las siguientes cuestiones:

  • ¿Cuáles son las principales características de este tipo de vídeos?
    • WebM, el formato de video abierto de Google, al ser codificado con VP8 con el máximo bitrate, tiene una calidad inferior a la del H.264, aunque compite en el tamaño.
  • ¿Cuáles son los casos de uso más habituales de este tipo de vídeos?
    • Normalmente son usados en sitios de Google (Youtube, por ejemplo). Ni Apple ni Windows incluyen este formato por defecto en sus instalaciones o programas, lo que significa que el usuario ha de instalarlo para poder usarlo, lo cual explica su poco uso fuera del ámbito de Google.

12. Convierte el vídeo MPEG en WebM (Matroska MKV) con el códec VP9 y responde a las siguientes cuestiones:

  • ¿Cuáles son las principales características de este tipo de vídeos?
    • Este códec es una evolución del anteriormente mencionado. Incluye mejoras como bloques de predicción más grandes, varias formas de componentes de inter predicción, mejoras en la codificación de los vectores de movimiento, etc.
  • ¿Cuáles son los casos de uso más habituales de este tipo de vídeos?
    • Como hemos dicho antes, su uso más habitual es el streaming en páginas propiedad de Google.
  • ¿Cuáles son diferencias técnicas entre el códec VP9 y H.265?
    • El códec VP9 tiene un bitrate significativamente inferior a H.265, a pesar de que presente una pequeña pérdida de calidad.
  • Analiza y compara los resultados de ambos vídeos (VP9 y H.265).
    • En este caso, el conversor nos ha devuelto un bitrate superior en el caso del VP9, por alguna razón que desconozco.
      VP9 H.265
      Format : Matroska
      Format version : Version 4 / Version 2
      File size : 136 MiB
      Duration : 25s 130ms
      Overall bit rate : 45.5 Mbps
      Format : VP9
      Codec ID : V_VP9
      Duration : 25s 150ms
      Width : 1 920 pixels
      Height : 1 080 pixels
      Display aspect ratio : 16:9
      Frame rate mode : Constant
      Frame rate : 23.976 fps
      Default : Yes
      Forced : No
      Format : AAC
      Format/Info : Advanced Audio Codec
      Format profile : LC
      Codec ID : A_AAC
      Duration : 25s 130ms
      Channel(s) : 2 channels
      Channel positions : Front: L R
      Sampling rate : 48.0 KHz
      Compression mode : Lossy
      Title : Stereo
      Default : Yes
      Forced : No
      Format : MPEG-4Format profile : Base Media / Version 2
      Codec ID : mp42
      File size : 18.6 MiB
      Duration : 25s 131ms
      Overall bit rate mode : Variable
      Overall bit rate : 6 198 KbpsFormat/Info : High Efficiency Video Coding
      Format profile : Main@L4@Main
      Codec ID : hev1
      Codec ID/Info : High Efficiency Video
      Duration : 25s 67ms
      Bit rate : 6 205 Kbps
      Width : 1 920 pixels
      Height : 1 080 pixels
      Display aspect ratio : 16:9
      Frame rate mode : Variable
      Frame rate : 23.976 fps
      Minimum frame rate : 23.974 fps
      Maximum frame rate : 23.981 fps
      Color space : YUV
      Chroma subsampling : 4:2:0
      Bit depth : 8 bits
      Bits/(Pixel*Frame) : 0.125
      Stream size : 18.5 MiB (100%)

      Format : AAC
      Format/Info : Advanced Audio Codec
      Format profile : LC
      Codec ID : 40
      Duration : 25s 131ms
      Bit rate mode : Variable
      Bit rate : 2 272 bps
      Channel(s) : 2 channels
      Channel positions : Front: L R
      Sampling rate : 48.0 KHz
      Compression mode : Lossy
      Stream size : 6.97 KiB (0%)
      Title : Stereo / Stereo

 

13. Como conclusión, haz una breve comparativa entre los dispositivos más comunes para ver vídeo online y el tipo de formato y códec que sería más eficaz en cada caso.

  • Como ya se ha hecho evidente a lo largo de este breve artículo, si nos hallamos ante un dispositivo móvil que depende del ancho de banda (tablet, móvil, cualquier cosa conectada mediante 3/4G) lo óptimo será usar MKV y VP9. En cambio, si primamos más la calidad y no es tan relevante el ancho de banda (por ejemplo, para descargar una película y verla en un sobremesa) el MP4 con H.265 es nuestra mejor opción – esto también es así si es muy importante que la calidad del streaming sea alta.

14. Bibliografía

(2018). Retrieved 11 March 2018, from https://www.quora.com/Which-is-better-WebM-or-MP4

A VP9 Bitstream Overview. (2018). Tools.ietf.org. Retrieved 11 March 2018, from https://tools.ietf.org/id/draft-grange-vp9-bitstream-00.html

Antonio, J. (2018). Te contamos qué es el códec H.265 y por qué más que futuro, ya es el presente de la compresión en vídeoXatakahome.com. Retrieved 11 March 2018, from https://www.xatakahome.com/reproductores/te-contamos-que-es-el-codec-h-265-y-porque-mas-que-futuro-ya-es-el-presente-de-la-compresion-en-video

Formato MPEG. (2018). CCM. Retrieved 11 March 2018, from http://es.ccm.net/contents/721-formato-mpeg

Formatos de archivos de vídeo. (2018). Ite.educacion.es. Retrieved 11 March 2018, from http://www.ite.educacion.es/formacion/materiales/107/cd/video/video0102.html

Formatos MPEG. (2018). Lpi.tel.uva.es. Retrieved 11 March 2018, from https://www.lpi.tel.uva.es/~nacho/docencia/ing_ond_1/trabajos_01_02/formatos_audio_digital/html/mpegformat.htm

GUÍA NORENDER.COM CÓDECS: DIFERENCIA ENTRE FORMATO, CÓDEC Y RESOLUCIÓN | :: norender.com :: Noticias, tutoriales y artículos del mundo del vídeo. (2018). Norender.com. Retrieved 11 March 2018, from http://www.norender.com/guia-norender-com-codecs-diferencia-entre-formato-codec-y-resolucion/

H.265. (2018). Es.wikipedia.org. Retrieved 11 March 2018, from https://es.wikipedia.org/wiki/H.265

tecnolog�a, D. (2018). Definici�n de MP4 (formato video)Alegsa.com.ar. Retrieved 11 March 2018, from http://www.alegsa.com.ar/Dic/mp4.php

The WebM Project | WebM Container Guidelines. (2018). Webmproject.org. Retrieved 11 March 2018, from https://www.webmproject.org/docs/container/

Anuncios

Responder

Introduce tus datos o haz clic en un icono para iniciar sesión:

Logo de WordPress.com

Estás comentando usando tu cuenta de WordPress.com. Cerrar sesión /  Cambiar )

Google+ photo

Estás comentando usando tu cuenta de Google+. Cerrar sesión /  Cambiar )

Imagen de Twitter

Estás comentando usando tu cuenta de Twitter. Cerrar sesión /  Cambiar )

Foto de Facebook

Estás comentando usando tu cuenta de Facebook. Cerrar sesión /  Cambiar )

Conectando a %s